A legsötétebb óra (Darkest Hour) 2017 WEB-DL.x264
dragon moovie
Az oldal tartalma részben megtekinthető vendégként , a teljes tartalomhoz való hozzáféréshez regisztráció és belépés szükséges !

Kérünk valós email címet adj meg , aktiváló linket tartalmazó üzenetet kapsz a megadott címre !


Online Filmek - Sorozatok - Letöltések
 
HomePortalCalendarGy.I.K.KeresésTaglistaCsoportokRegisztrációBelépés

Online Filmek - Sorozatok - Letöltések

 A legsötétebb óra (Darkest Hour) 2017 WEB-DL.x264

 
Előző téma megtekintése Következő téma megtekintése Go down 
SzerzőÜzenet
hegyiwarez1986
feltöltő
feltöltő


Hozzászólások száma : 350
Pontok : 2546
Csatlakozás dátuma : 2017. Dec. 22.

TémanyitásTárgy: A legsötétebb óra (Darkest Hour) 2017 WEB-DL.x264   2/12/2018, 2:18 am








A legsötétebb óra
/Darkest Hour/

angolul beszélő, angol életrajzi dráma, 125 perc, 2017


======= [ :: STáBLiSTa :: ] =======


Rendező: Joe Wright
Forgatókönyv: Anthony McCarten
Zene: Dario Marianelli

Szereplők:
Gary Oldman
Kristin Scott Thomas
Ben Mendelsohn
Lily James
Stephen Dillane
Ronald Pickup
Nicholas Jones


======= [ :: TaRTaLoM :: ] =======


Néhány nappal azelőtt, hogy Nagy-Britannia miniszterelnöke lett, Winston Churchill élete egyik legmeghatározóbb próbatétele elé került: megfontoljon egy kidolgozott békeszerződést a náci Németországgal, vagy határozottan kiálljon, és harcoljon az elveiért, a nemzet szabadságáért.
A megállíthatatlan náci erők legázolták Nyugat-Európát, és az invázió veszélye a küszöbön állt; a közvélemény felkészületlen volt, a király szkeptikus, saját pártja pedig ellene szervezkedett. Churchill ilyen körülmények között nézett szembe legsötétebb órájával, lelkesítette fel a nemzetet, és próbálta megváltoztatni a történelem menetét.


======= [ :: SCreeNSh0Ts :: ] =======





======= [ TeCH InFO ] =======



Video
ID : 1
Format : AVC
Format/Info : Advanced Video Codec
Format profile : High@L3.1
Format settings : CABAC / 5 Ref Frames
Format settings, CABAC : Yes
Format settings, ReFrames : 5 frames
Codec ID : avc1
Codec ID/Info : Advanced Video Coding
Duration : 2 h 4 min
Bit rate : 1 100 kb/s
Width : 720 pixels
Height : 384 pixels
Display aspect ratio : 1.85:1
Frame rate mode : Constant
Frame rate : 23.976 (23976/1000) FPS
Color space : YUV
Chroma subsampling : 4:2:0
Bit depth : 8 bits
Scan type : Progressive
Bits/(Pixel*Frame) : 0.166
Stream size : 973 MiB (81%)
Title : Darkest.Hour.2017.WEB-DL.x264-FGT
Writing library : x264 core 148 r2795M aaa9aa8

Language : English

Audio
ID : 2
Format : AAC
Format/Info : Advanced Audio Codec
Format profile : LC
Codec ID : mp4a-40-2
Duration : 2 h 4 min
Duration_LastFrame : -11 ms
Bit rate mode : Constant
Bit rate : 256 kb/s
Channel(s) : 2 channels
Channel positions : Front: L R
Sampling rate : 48.0 kHz
Frame rate : 46.875 FPS (1024 SPF)
Compression mode : Lossy
Stream size : 229 MiB (19%)
Title : Darkest.Hour.2017.WEB-DL.x264-FGT
Language : English
Default : Yes
Alternate group : 1



======= [ DoWNLoAD ] =======



[You must be registered and logged in to see this link.]
[You must be registered and logged in to see this link.]



Vissza az elejére Go down
Felhasználó profiljának megtekintése
 Előző téma megtekintése Következő téma megtekintése Vissza az elejére 
1 / 1 oldal

Permissions in this forum:Nem válaszolhatsz egy témára ebben a fórumban.
dragon moovie :: Film letöltések :: Idegen nyelvű,feliratra váró-